alliance-samcro Index du Forum
L'alliance SAMCRO vous présente son forum
alliance-samcro Index du ForumFAQRechercherS’enregistrerConnexion
:: My Pico S1 My Little Summer Story RAW ::

Poster un nouveau sujet   Répondre au sujet    alliance-samcro Index du Forum -> Nouveau membre -> Candidature
Sujet précédent :: Sujet suivant  
Auteur Message

Hors ligne

Inscrit le: 05 Mai 2016
Messages: 121
Localisation: Milano

MessagePosté le: Ven 14 Juil - 20:25 (2017)    Sujet du message: My Pico S1 My Little Summer Story RAW Répondre en citant

My Pico S1 My Little Summer Story [RAW] >

My Pico S1 My Little Summer Story [RAW]

Bookmark Share with friends Send to Wall Scrape History ( seeds + peers ) Internal Files [].My.Pico.S1.My.Little.Summer.Story.[RAW] [].My.Pico.S1.My.Little.Summer.Story.[RAW].avi 153.03 MB [].My.Pico.S1.My.Little.Summer.Story.[SCREENSHOTS].jpg 198.91 KB [].My.Pico.S1.My.Little.Summer.Story.[COVER].jpg 149.42 KB [].nfo 709 Byte [].nfo 153 Byte Hash Code 2d6c4eec58659aa62553cbf508d4c173c6693d50 Description hentai anime (yaoi) for more information, covers and screenshots visit: So long!My Pico S1 My Little Summer Story [RAW]My Pico S1 My Little Summer Story [RAW] (pico / Pico: Boku no Chiisana Natsu Monogatari / Pico: My Little Summer Story)Direct Download Link(s) (DDL) [].My.Pico.S1.My.Little.Summer.Story.[RAW].avi (153.03 MB) PLOT: An edited version of the first OVA titled pico Boku no Chiisana Natsu Monogatari (pico: My Little Summer Story) was released on November 11, 2007Trackers Refresh Leechers : Updated April 9, 2017 1No subscriptionsudp:// 3Download manager supportBitSnoop Share this post Link to post Share on other sites Create an account or sign in to comment You need to be a member in order to leave a comment Create an account Sign up for a new account in our communityIt's easy! Register a new account Sign in Already have an account? Sign in here

IS this an alternate version of boku no pico? Reply DizzyJuly 13, 2012 at 9:18 am Replyread the description ReplyLeave a Reply Cancel reply Subscribe!Enter your email address to subscribe and receive notifications of new posts by email! Email Address Recent CommentsVerginello on Majuu Jouka Shoujo Utea EP04David on Meikoku Gakuen Jutai henwolf on NONSTOP! Corruption Of A Schoolgirl EP 01-08 [RAW] [3D]anonymous on RJ149000Verginello on Shikkoku no Shaga The Animationjavguru on Maid Service EP 01-02 [ENG SUBS] [UNCEN] [HD]javguru on Gloria EP 01-03 [UNCEN] [HD]DocMartin on The Depths Of The Dungeon 3 [RAW]StephanI on One Piece Nami Nailed [RAW] [3D]deathmarine on Amakano EP04Recent Posts Tsumamigui 3 The Animation EP02 Baka Dakedo Chinchin Shaburu no Dake wa Jouzu na Chii-chan EP01 Zutto Suki Datta EP02 Majuu Jouka Shoujo Utea EP04 Tsuma ga Onsen de Circle Nakama no Nikubenki ni Natta no Desu ga& Anime Edition Tensei Kendo no Harem Colosseum Jitaku Keibiin Yarimoku Beach ni Shuugakuryokou de!! The Animation Yareruko! Densha Ecchi ResidencePagesComments PageContact MeFAQsMake a RequestTags3D Hentai (3D) 10bit 2001 2002 2003 2004 2007 2009 2010 2011 2012 2013 Anal () BDSM Big Breasts () Bondage () Comedy () Demons () Description Missing Eager Beaver ( ) English Subtitles Fantasy () Female Teachers () Futanari () Gangbang () Harem () High Definition (HD) Housewives () Incest () Maids () Masturbation () Mobile Devices Rape () RAW Romance () Schoolgirls () Science Fiction (SciFi) Sex Toys () Small Breasts () Tentacles () Torture () Uncensored () Virgins () Warrior Women () Yuri ()udp:// 5No limits on the amount of downloadsFiles in your premium account kept foreverSample info: Duration: 00:30:36.44, start: 0.000000, bitrate: 699 kb/s Stream #0.0: Video: wmv3, yuv420p, 704x396, 119.88 fps, 29.97 tbr, 119.88 tbn, 119.88 tbc Stream #0.1: Audio: mp3, 48000 Hz, 2 channels, s16, 192 kb/sTorrent Hash:2D6C4EEC58659AA62553CBF508D4C173C6693D50 Number of Files:5 Content Size:153.37MB Convert On:2014-05-29 Keywords:hsharenetMyPicoS1MyLittleSummerStoryRAW Magnet Link:magnet:?xt=urn:btih:2D6C4EEC58659AA62553CBF508D4C173C6693D50& Link: Comments PageContact MeFAQsMake a Request It is a re-edited version of the animation seen in the Boku no Pico OVA set to a new script, featuring content that is more appropriate for viewers under the age of 18.Dizzy Author archiveApril 8, 2011Hentai Anime Downloads2007, Anal (), Crossdresser (), RAW, Romance (), Yaoi () Previous post Next post 2 CommentsAdd yours ex8903July 13, 2012 at 7:10 am ReplyI have never heard of my summer storyudp:// 4Jump to content

Traveller Level B2 workbook keyadobe muse cc cracked macsetupconsumerc2rolw.exe dutch-addsStar Wars Episode IV A New Hope DVDRip XviD DoNE.avicodigocc v1.0.rarfree download video 3gp jilbabnegro jetro discografia taringanexus 2 free download vst-addsreggae dancehall riddim pack 2013download gratis soal matematika smp semester 1 kelas 8 rsbi

Revenir en haut

MessagePosté le: Ven 14 Juil - 20:25 (2017)    Sujet du message: Publicité

PublicitéSupprimer les publicités ?
Revenir en haut
Montrer les messages depuis:   
Poster un nouveau sujet   Répondre au sujet    alliance-samcro Index du Forum -> Nouveau membre -> Candidature Toutes les heures sont au format GMT + 2 Heures
Page 1 sur 1

Sauter vers:  

Index | Panneau d’administration | Creer un forum | Forum gratuit d’entraide | Annuaire des forums gratuits | Signaler une violation | Conditions générales d'utilisation
onyx © theme by larme d'ange 2006
Powered by phpBB © 2001, 2005 phpBB Group
Traduction par :